مرحبا بك عزيزي الزائر. المرجوا منك أن تعرّف بنفسك و تدخل المنتدى معنا. إن لم يكن لديك حساب بعد, نتشرف بدعوتك لإنشائه




 
الرئيسيةالبوابةالتسجيلدخول





دخول
اسم العضو:
كلمة السر:
ادخلني بشكل آلي عند زيارتي مرة اخرى: 
:: لقد نسيت كلمة السر
المواضيع الأخيرة
احصائيات
هذا المنتدى يتوفر على 88 عُضو.
آخر عُضو مُسجل هو Lryuza فمرحباً به.

أعضاؤنا قدموا 2246 مساهمة في هذا المنتدى في 784 موضوع

شاطر | 
 

 حصريا فيلم Double Dhamaal 2011 Hindi PDVDRip 1Cd XviD IcTv على أكثر من سيرفر

استعرض الموضوع السابق استعرض الموضوع التالي اذهب الى الأسفل 
كاتب الموضوعرسالة
MizOo
uPeR $taR$
uPeR $taR$
avatar

عدد الرسائل : 605
نقاط : 549
السٌّمعَة : 1
المزاج :
المهنة :
الهواية :

مُساهمةموضوع: حصريا فيلم Double Dhamaal 2011 Hindi PDVDRip 1Cd XviD IcTv على أكثر من سيرفر   الأحد يونيو 26, 2011 5:51 pm


Double Dhamaal 2011 Hindi PDVDRip 1Cd XviD IcTv

Art :.................................................



Info :.................................................
Format : AVI
Format/Info : Audio Video Interleave
File size : 695 MiB
Duration : 1h 55mn
Overall bit rate : 841 Kbps

Video
ID : 0
Format : MPEG-4 Visual
Format profile : Advanced Simple@L5
Format settings, BVOP : 2
Format settings, QPel : No
Format settings, GMC : No warppoints
Format settings, Matrix : Default (H.263)
Codec ID : XVID
Codec ID/Hint : XviD
Duration : 1h 55mn
Bit rate : 755 Kbps
Width : 608 pixels
Height : 240 pixels
Display aspect ratio : 2.533
Frame rate : 25.000 fps
Color space : YUV
Chroma subsampling : 4:2:0
Bit depth : 8 bits
Scan type : Progressive
Compression mode : Lossy
Bits/(Pixel*Frame) : 0.207
Stream size : 624 MiB (90%)
Writing library : XviD 1.2.1 (UTC 2008-12-04)

Audio
ID : 1
Format : MPEG Audio
Format version : Version 1
Format profile : Layer 3
Mode : Joint stereo
Mode extension : MS Stereo
Codec ID : 55
Codec ID/Hint : MP3
Duration : 1h 55mn
Bit rate mode : Constant
Bit rate : 80.0 Kbps
Channel(s) : 2 channels
Sampling rate : 32.0 KHz
Compression mode : Lossy
Stream size : 66.1 MiB (10%)
Alignment : Aligned on interleaves
Interleave, duration : 160 ms (4.00 video frames)
Interleave, preload duration : 216 ms
Title : VTS_01_1 T80 2_0ch 384Kbps DELAY 0ms
Writing library : LAME3.98r
Encoding settings : -m j -V 4 -q 2 -lowpass 15.1 -b 80


Description :.................................................

Release Date
Comedy
:
Genre
Indra Kumar
:
Director
Ashok Thakeria
Indra Kumar
Reliance Entertainment
:
Producer
Average 0/5 Stars
Total 0 Rates

Synopsis:

The
four good for nothing jokers from Dhamaal Roy (Ritesh Deshmukh), Adi
(Arshad Warsi), Manav (Jaaved Jaaferi) and Boman (Aashish Chaud..


Screen :.................................................







==================================================================

download

FileSonic

filesonic.com Double.Dhamaal.2011.PDVDRip.1Cd.XviD-Ictv.avi

FileHook
http://filehook.com/wm2o3yf03kko/Double.Dhamaal.2011.PDVDRip.1Cd.XviD-Ictv.avi.html


Wupload
wupload.com Double.Dhamaal.2011.PDVDRip.1Cd.XviD-Ictv.avi


rapidshare
rapidshare.com Double.Dhamaal.2011.PDVDRip.1Cd.XviD-Ictv.avi


Bitshare
bitshare.com Double.Dhamaal.2011.PDVDRip.1Cd.XviD-Ictv.avi.html


FileServer
fileserve.com sZCzNbn/Double.Dhamaal.2011.PDVDRip.1Cd.XviD-Ictv.avi





_________________

الرجوع الى أعلى الصفحة اذهب الى الأسفل
 
حصريا فيلم Double Dhamaal 2011 Hindi PDVDRip 1Cd XviD IcTv على أكثر من سيرفر
استعرض الموضوع السابق استعرض الموضوع التالي الرجوع الى أعلى الصفحة 
صفحة 1 من اصل 1
 مواضيع مماثلة
-
» [مسميات] الاعضاء جناان 2011  
» أودى S8 2011 الجديدة كلياً
» حسام الرسام 2011 راحت امي
» حسام 2011 ورده
» حسام 2011 خضري خدك

صلاحيات هذا المنتدى:لاتستطيع الرد على المواضيع في هذا المنتدى
 :: Downloads :: Movies-
انتقل الى: